720p video playback :)? how? does it work?

Discussion in 'Huawei Ideos S7' started by Themoses, Mar 10, 2011.

  1. Themoses

    Themoses Member

    Joined:
    Mar 8, 2011
    Messages:
    10
    Likes Received:
    0
    Trophy Points:
    60
    Location:
    Taiwan :D
    Tablet / Device:
    IDEOS S7 ;D
    Has anyone tried to play a 720p video on s7? mine plays but at a horrible framerate...

    but since playing 720p video was one of the selling point here in Taiwan, I'd like to know if anyone has done it and played smoothly?

    there was a thread regarding the video format and what can/cannot play, but I don't think they got the 720p to work either :(

    so~ has anyone tried to play 720p video on the s7 :D? if so~ could you kindly tell me the spec of the video? :D

    Thank you ^^
     
  2. xaueious

    xaueious Administrator Staff Member

    Joined:
    Jul 9, 2010
    Messages:
    3,483
    Likes Received:
    435
    Trophy Points:
    222
    Location:
    Canada
    Tablet / Device:
    Asus Transformer TF300, Huwaei Ideos S7-104, HSG X5A, (Past APAD IMX515, APAD RK2808, RK2818 RT7)
  3. tri_zet

    tri_zet Senior Member Developer

    Joined:
    Mar 1, 2011
    Messages:
    197
    Likes Received:
    94
    Trophy Points:
    102
    Location:
    Jakarta
    Tablet / Device:
    Huawei Ideos S7
    1. convert your video to get better file size/quality.
    2. use RockPlayer and use "Hardware Decoding Mode"

    tested using this quality and no lag if using "Hardware Decoding Mode".
    Code:
    Video
    Format : AVC
    Format/Info : Advanced Video Codec
    Format profile : High@L3.0
    Format settings, CABAC : No
    Format settings, ReFrames : 1 frame
    Codec ID : avc1
    Duration : 51s 200ms
    Bit rate mode : Variable
    Bit rate : 1949 Kbps
    Width : 1280 pixels
    Height : 720 pixels
    Display aspect ratio : 16/9
    Frame rate mode : Constant
    Frame rate : 25.000 fps
    Colorimetry : 4:2:0
    Scan type : Progressive
    Bits/(Pixel*Frame) : 0.085
    Stream size : 11.9 MiB
    
    Audio
    Format : AAC
    Format/Info : Advanced Audio Codec
    Format version : Version 4
    Format profile : LC
    Format settings, SBR : No
    Codec ID : 40
    Duration : 49s 941ms
    Bit rate mode : Variable
    Bit rate : 192 Kbps
    Maximum bit rate : 218 Kbps
    Channel(s) : 2 channels
    Channel positions : L R
    Sampling rate : 48.0 KHz
    Resolution : 16 bits
    Stream size : 1.13 MiB
    
     
  4. Themoses

    Themoses Member

    Joined:
    Mar 8, 2011
    Messages:
    10
    Likes Received:
    0
    Trophy Points:
    60
    Location:
    Taiwan :D
    Tablet / Device:
    IDEOS S7 ;D
    Thanks guys, for the link and very detailed formats,

    I tried using hardware decoding mode but it kept saying mine vid weren't supported, I guess i'll need to convert my videos..

    would the file type matter? like mkv, mp4, avi ..etc , or it wouldn't matter? :)
     
  5. tri_zet

    tri_zet Senior Member Developer

    Joined:
    Mar 1, 2011
    Messages:
    197
    Likes Received:
    94
    Trophy Points:
    102
    Location:
    Jakarta
    Tablet / Device:
    Huawei Ideos S7
    to use hardware decoding mode you need video with h264/avc codec with .mp4 container. i guess rockplayer also support .mkv container.
    h264/avc codec plays better in hardware decoding mode.

    others than h264/avc codec, you need to play in "software decoding mode".
     

Share This Page

Search tags for this page
codec ideos s7 104
,

will 720p videos work on a huawei phone