Which format is best when watching movies on HTC Flyer ?

Youngbb

Member
Jun 1, 2011
3
0
Hi ,there.
I am trying to add movies to my HTC Flyer so as to watch them on board. I mean my DVD and Blu-ray movies. I know it’s copy-protected but I use these movies strictly for personal use. I own Pavtube Blu-ray ripper, which handles Blu-rays and DVDs. Just not sure which format to use.which format is best ? Any suggestions? What format does HTC Flyer play? :confused:
 

wicked

Administrator
Staff member
Mar 16, 2011
674
80
It should be able to play mp4 and avi. Use MoboPlayer to play them. Free in the market.

Welcome to the forum btw. ;)
 

beastman

Member
May 8, 2011
351
7
Haven't tried MoboPlayer but have tried Qqplayer, also free.
Sent from my PC36100 using Android Tablet Forum
 

green01

Member
Jun 2, 2011
1
0
Hi ,there.
I am trying to add movies to my HTC Flyer so as to watch them on board. I mean my DVD and Blu-ray movies. I know it’s copy-protected but I use these movies strictly for personal use. I own Pavtube Blu-ray ripper, which handles Blu-rays and DVDs. Just not sure which format to use.which format is best ? Any suggestions? What format does HTC Flyer play? :confused:

My HTC Flyer plays mp4 videos without problem. File information for your reference:
General
Complete name : F:\My Documents\My Videos\PREMOTION.mp4
Format : AVC
Format/Info : Advanced Video Codec
Format profile : Baseline@L4.1
Format settings, CABAC : No
File size : 779 MiB
Duration : 1h 36mn
Overall bit rate : 1 130 Kbps
Writing application : Lavf52.32.0
Video
ID : 1
Format : MPEG-4 Visual
Format profile : Simple@L3
Format settings, BVOP : No
Format settings, QPel : No
Format settings, GMC : No warppoints
Format settings, Matrix : Default (H.263)
Codec ID : 20
Duration : 1h 36mn
Bit rate mode : Variable
Bit rate : 998 Kbps
Width : 800 pixels
Height : 480 pixels
Display aspect ratio : 16:9
Frame rate mode : Constant
Frame rate : 29.970 fps
Color space : YUV
Chroma subsampling : 4:2:0
Bit depth : 8 bits
Scan type : Progressive
Bits/(Pixel*Frame) : 0.217
Stream size : 688 MiB (88%)
Writing library : XviD 1.1.2 (UTC 2006-11-01)
Language : English
Audio
ID : 2
Format : AAC
Format/Info : Advanced Audio Codec
Format version : Version 4
Format profile : LC
Format settings, SBR : No
Codec ID : 40
Duration : 1h 36mn
Bit rate mode : Variable
Bit rate : 128 Kbps
Channel(s) : 2 channels
Channel positions : Front: L R
Sampling rate : 44.1 KHz
Stream size : 88.1 MiB (11%)
Language : English
I use Blu-ray Video converter ultimate, and choose the HTC Evo 4G format for conversion. Hope this helps you.
 

Youngbb

Member
Jun 1, 2011
3
0
I tried the settings you suggest with pavtube, and it works! I’m now ripping DVDs to MP4 for HTC Flyer.Thanks
 

Droid-Xer

Super Moderator
Staff member
Mar 30, 2011
586
38
Use DVD Catalyst for converting movies. Too easy to use! And ya I do everything mp4 on my xoom
 

wicked

Administrator
Staff member
Mar 16, 2011
674
80
Why spend $50 when you can get DVD Catalyst for $10 and it works flawlesly.

Also the developer is a member here and a supporting vendor in a few of our forums! ;)
 

dsf3g

Member
Jun 30, 2011
2
0
Anyone want to see how a movie runs that's been converted using the Nook Color "High Quality" defaults? I've converted some 100 of my DVDs to watch on my Nook Color. However, I'm really digging the Flyer, especially the pen input option, and I may buy one when the price comes down a bit (and the pen is included).
 

deathofkai

Member
May 6, 2011
31
0
or, spend nothing and use SUPER from eRightSoft, can convert from any format to any format. That includes mkv, avi, wmv, mp4, etc in dixv, h.256, mpeg-2, etc.
Can also choose screen size, ratio, video/audio bitrate (higher the better), audio format, etc. Hold your mouse over an option and it gives you a proper tool tip explaining every action.
 
Top